David Byrne Discography Flac


Brain Congratulations 2. Preview The '69 Los Angeles Sessions. The Neo-Realist 4. Distinctions: The Qobuz Ideal Discography Hi-Res Audio. Released on 9/16/77 by Rhino - Warner Records. 1kHz - ? It seemed to. cue, log Bitrate: lossless Sample Rate: 16 Bit/44. 0 Sample Rate: 16 Bit/44. 1 kHz (Tracks) Artist: David Byrne Title: American Utopia on Broadway (Original Cast Recording) Released: 2019 Style: Soundtrack RAR Size: 2. ABC Lullaby 1:21. Twisted Sister 2006-05-26 Charlotte, NC FLAC/AUD (Lossless Audio from Blu-ray) mediaaddict. Brazil Classics 3: Forró etc. Here (Live). Au Banquet Aux Chausseurs 6. FILE "David Byrne - David Byrne (9362-45558-2). Here you can find out the name of the album «American Utopia», its tracklist, songs and video clips. Du Nord Au Sud 4. flac" WAVE TRACK 01 AUDIO TITLE "A Long Time Ago" PERFORMER "David Byrne" INDEX 01 00:00:00 TRACK 02 AUDIO TITLE "Angels" PERFORMER "David Byrne" INDEX 01 03:23:63 TRACK 03 AUDIO TITLE "Crash" PERFORMER "David Byrne" INDEX 01 08:05:08 TRACK 04 AUDIO TITLE "A Self-Made Man" PERFORMER "David Byrne. Preview, buy and download high-quality MP3 downloads of American Utopia by David Byrne from zdigital Australia - We have over 19 million high quality tracks in our store. Subsequent releases include Actor (2009), Strange Mercy (2011), and a collaborative album with David. 1 kHz Size: 7 GB. Jamiroquai discography [1993-2017] FLAC 토렌트 torrent David Byrne's - American Utopia on Broadway (Original Cast Recording) (2019) 224M : 2019. Leimer Artificial Dance by Savant, released 04 September 2015 1. Buzz Yr Girlfriend: Vol 3 - The Metal David Byrne by Geronimo!, released 29 March 2013 1. Miss America (I Love America Mix). Miss America by David Byrne, released 23 December 1997 1. Gasoline And Dirty Sheets (3:19) 03. Revolution 8. Everybody's Coming to My House David Byrne 2018 From $1. Miami artwork by aila byrne. Naïve Derviche 5. WBCN FM radio live broadcast > Altec reciever with wire antenna > Sony TCD-5M cassette deck (dolby off) > Maxell XLII 90 min. 0 Sample Rate: 16 Bit/44. Treat Myself by Meghan Trainor (2020, CD Flac) - 2 years ago. Free Music Archive (FMA) is another site with tons of free classical music downloads, to the tune of more than 3,000. I Should Watch TV 8. Artist: David Byrne Title Of Album: David Byrne's American Utopia Year Of Release: 2020 Label: Dogwoof [DOG 436] Country: USA|UK Genre: Alternative / Independent Quality: MKV/BDRip 1080p Video: MPEG-4 AVC Video / 8 500 kbps / 1080p / 23. Preview Everybody's Coming to My House. David Bowie's 1. É De Dar Água Na Boca 8. Bitrate: 800-14000 kb/s Audio Format: FLAC Genre: Pop/Rock Music Artwork: Yes Source: CD+VINYL Total Filesize: 325 GB. cd scans) Length: 40m 18s. Preview Who. 1 kHz (Tracks) Artist: David Byrne Title: American Utopia on Broadway (Original Cast Recording) Released: 2019 Style: Soundtrack RAR Size: 2. The discography of Little Mix's 6 studio albums, 1 reissued album,28 singles (one of which as a featured artist) and 32 music videos. Feb 11, 2010 — Through a series of songs written by David Byrne, with musical contributions from Fatboy Slim (Norman Cook), Songs from Here Lies Love The Fatboy Slim/Norman Cook Collection - 2000 {FLAC} [rykker] · kickass. 0 kHz - Stereo. Stationary Dance 9. Start my trial period and start listening to this album. Talking Heads biography Formed in 1975 in New York City, USA - Disbanded in 1991 David BYRNE ( guitarist,vocalist), Chris Frantz (drummer) and bassist Tina Weymouth met at the Rhode Island School of Design in the early 70's and from there moved to New York to start making music around 1974. Download torrent David Byrne «American Utopia» ( 2018) (Post-Punk) in HD quality FLAC | MP3 320 kbps. David Byrne - American Utopia (2018) Country: USA Genre: New Wave, Post-Punk, Art-Pop Quality: FLAC (image+. Search for and download any torrent from the pirate bay using search query brian eno. 1kHz - ? It seemed to. greatest aor albums of all time. David Bowie Greatest Hits Flac Torrent 2017; David Bowie Greatest Hits Flac of David Bowie's critically acclaimed 2013 album The Next Day. Brulé La Mèche 12. U2 - Collection 1980-2020 [350 ALBUMS] FLAC Part 1 Of 3. É De Dar Água Na Boca 8. Leimer's complete collaborative. Main artist: Talking Heads. David Bowie's 1. Feb 11, 2010 — Through a series of songs written by David Byrne, with musical contributions from Fatboy Slim (Norman Cook), Songs from Here Lies Love The Fatboy Slim/Norman Cook Collection - 2000 {FLAC} [rykker] · kickass. Du Nord Au Sud 4. This Must Be The Place (Naïve Melody) 9. Brian Eno And David Byrne - My Life In The Bush Of Ghosts 1981. Here (Live). I Zimbra 6. Buy whole album with 10% discount - ONLY 1. Out Of The Darkness. 16-bit FLAC. Download torrent David Byrne «American Utopia» ( 2018) (Post-Punk) in HD quality FLAC | MP3 320 kbps. 1 kHz / CD Flac, Discography, Lossless, KaRaMusic. From original France Inter Live broadcast (FM bandwidth). [ SHARE] The Caretaker - Discography [FLAC] [16-bit / 44. Once In A Lifetime 10. Jimmy, Renda-Se 8. flac" WAVE TRACK 01 AUDIO TITLE "A Long Time Ago" PERFORMER "David Byrne" INDEX 01 00:00:00 TRACK 02 AUDIO TITLE "Angels" PERFORMER "David Byrne" INDEX 01 03:23:63 TRACK 03 AUDIO TITLE "Crash" PERFORMER "David Byrne" INDEX 01 08:05:08 TRACK 04 AUDIO TITLE "A Self-Made Man" PERFORMER "David Byrne. A Feira De Caruaru 14. Kill Streak 5. Revolution 8. It's Not What You Said It's Because You Spoke by DJ Pitch, released 02 July 2021 1. Organ Tapes) 10. Un P'tit Air 3. Hang Ten Hamburg 4. Falling At Two Speeds 14. Slippery People 7. Subsequent releases include Actor (2009), Strange Mercy (2011), and a collaborative album with David. David Byrne's Badside by Courting, released 15 May 2020 He spits at the people when they're not his own I thought we united, he says it's his home I'm not racist or tasteless They're invasive, they're hateful At The Rose, the boys don't question his behaviour Football shirts tucked into tracksuits Counts as formal wear, not drug dealing casual Hard times round here man, we gotta get through it. Messines by The John Byrne Band, released 02 October 2020 Messines T'was on a grim June morning the thunderous mines did blow Praying to God with thoughts of home, together we faced the foe I cursed all those who sent us here, to a war we dared to share Remember us as brothers we fought, always faithful and everywhere. Recordação De Vaqueiro 11. U2, Irish postpunk band that by the end of the 1980s had established itself not only as one of the world's most popular bands but also as one of its. Slippery People 7. In addition to being a retrospective of the duo's collaborations, the tour promoted the album Everything That Happens Will Happen Today. Daa Daa Edikanfo The first-ever reissue of the classic 1981 debut album from this much revered Ghanaian band. Start my trial period and start listening to this album. Distância 4. Uploaded 11-04 2018, Size 221. Du Nord Au Sud 4. Money (feat. With the spectrogram you'll be able to see if said track is a real FLAC rip or a transcode from MP3 or other loss codecs !. 1kHz - ? It seemed to. Buzz Yr Girlfriend: Vol 3 - The Metal David Byrne by Geronimo!, released 29 March 2013 1. Au Banquet Aux Chausseurs 6. Dancing With Jean-Maurice Cuisine Non-Stop is the first compilation of its. It's Not What You Said 8. Dulcinéia Popular Brasileira 5. Fém Ren 10. O Riso E A Faca 7. Brian Eno And David Byrne - My Life In The Bush Of Ghosts 1981. FILE "David Byrne - David Byrne (9362-45558-2). Kill Streak 5. 1 kHz Size: 7 GB. Once In A Lifetime 10. Preview The '69 Los Angeles Sessions. The Equatorial Stars, released in 2004, was Eno's first work with Robert Fripp since Evening Star, the 1975 follow-up to No Pussyfooting. 1988 - The Last Emperor (with David Byrne) [320kbps] 1990 - The Handmaid's Tale [320kbps] 1990 - The Sheltering Sky [320kbps] in digital format /mp3/flac*/ registration is required to acces this area discography. Brian Eno And David Byrne - My Life In The Bush Of Ghosts 1981. Gfi Languard 2012 Serial Keygen License Key slowly Gallop, mobile avances Histo. Les Lolos 9. (2001) FM tuner > Marantz stereo cassette recorder CP230 >. David Bowie's 1. Nelson Gonçalves. This Must Be The Place (Naïve Melody) 9. David Byrne, Ras Congo, Chuck D, Seu Jorge & Z-Trip) 04. Stationary Dance 9. Every Day Is A Miracle (4:46). Stream and download in Hi-Res on Qobuz. Complete discography, ratings, reviews and more. 2010 - Ride, Rise, Roar: Download. : Music of the Brazilian Northeast by Luaka Bop, released 04 June 1991 1. cue+covers) Tracklist: 01. It's Not What You Said It's Because You Spoke by DJ Pitch, released 02 July 2021 1. 분류 제목 용량 등록일; 음악 [벅스] 2021년 10월 06일 실시간 TOP 100 [22시 기준]. 2010 - David Byrne & Fatboy Slim - Here Lies Love: Download. This Is That David Byrne 2018 From $1. Fault Index Artificial Dance chronicles K. The musical reunion between David Byrne and Brian Eno comes with a fair amount of baggage. Think I Didn't 3. René Bouteille 8. Martina Weymouth, Bass Guitar - JERRY HARRISON, Guitar, Keyboards, Vocals - Eric Thorngren, Mixer, Recorder - David Byrne, Guitar, Vocals, Writer - Chris Frantz, Drums - Talking Heads, Producer, MainArtist. Unlimited Streaming. Trilha Sonora "Dois Filhos de Francisco" Zezé Di Camargo & Luciano. I Zimbra 6. O Riso E A Faca 7. Download discography David Byrne on site losslessalbums. Way Down (feat. David Byrne's Badside by Courting, released 15 May 2020 He spits at the people when they're not his own I thought we united, he says it's his home I'm not racist or tasteless They're invasive, they're hateful At The Rose, the boys don't question his behaviour Football shirts tucked into tracksuits Counts as formal wear, not drug dealing casual Hard times round here man, we gotta get through it. Vibrantly produced by British sound explorer Brian Eno in Accra, Ghana. "The Jezebel Spirit" is the fourth song from the 1981 album My Life in the Bush of Ghosts by David Byrne and Brian Eno. Artist: David Byrne Title Of Album: David Byrne's American Utopia Year Of Release: 2020 Label: Dogwoof [DOG 436] Country: USA|UK Genre: Alternative / Independent Quality: MKV/BDRip 1080p Video: MPEG-4 AVC Video / 8 500 kbps / 1080p / 23. Born in Dumbarton, Scotland on May 14,. top 5000 albums of all time. Heart Of Stillness 8. Uploaded 11-04 2018, Size 221. It's Because You Spoke 9. The song includes a "found sound"—an exorcism performed by an anonymous exorcist—over Afrobeat music similar to that Byrne and Eno had used in the Talking Heads album Remain in Light. Unlimited Streaming. From original France Inter Live broadcast (FM bandwidth). Genre: Rock. Gasoline And Dirty Sheets (3:19) 03. Du Nord Au Sud 4. Missy Elliott Discography 7 Albums FLAC (tracks+. 파일크기 : 224M. Gfi Languard 2012 Serial Keygen License Key slowly Gallop, mobile avances Histo. 1 Audio: DTS 5. Know Myself 4. Preview, buy and download high-quality MP3 downloads of American Utopia by David Byrne from zdigital Australia - We have over 19 million high quality tracks in our store. 1 kHz / CD Flac, Discography, Lossless, KaRaMusic. Treat Myself by Meghan Trainor (2020, CD Flac) - 2 years ago. flac" WAVE TRACK 01 AUDIO TITLE "A Long Time Ago" PERFORMER "David Byrne" INDEX 01 00:00:00 TRACK 02 AUDIO TITLE "Angels" PERFORMER "David Byrne" INDEX 01 03:23:63 TRACK 03 AUDIO TITLE "Crash" PERFORMER "David Byrne" INDEX 01 08:05:08 TRACK 04 AUDIO TITLE "A Self-Made Man" PERFORMER "David Byrne. Album: American Utopia on Broadway (Original Cast Recording) Published: 2019. 03 Gb + 681 Mb. Here you can find out the name of the album «American Utopia», its tracklist, songs and video clips. From original France Inter Live broadcast (FM bandwidth). The Radio 12. God's Child 3. Direct download via magnet link. greatest aor albums of all time. 23 MiB, ULed by eyezin: 4: 2: Audio Buddha-Bar - Sun Electric-WEB-2018. It was released as a single the same year. Discography by Ulver (1993-2020, CD Flac) - 2 years ago. [Request] Brian Eno & David Byrne - Everything That Happens Will Happen Today (Lossless) REQUESTED. Stationary Dance 9. Artist: David Byrne Title Of Album: David Byrne's American Utopia Year Of Release: 2020 Label: Dogwoof [DOG 436] Country: USA|UK Genre: Alternative / Independent Quality: MKV/BDRip 1080p Video: MPEG-4 AVC Video / 8 500 kbps / 1080p / 23. The musical reunion between David Byrne and Brian Eno comes with a fair amount of baggage. Method Man, E-40 & DJ Swamp) 05. David Byrne Discography Flac. 1 kHz (Tracks) Artist: David Byrne Title: American Utopia on Broadway (Original Cast Recording) Released: 2019 Style: Soundtrack RAR Size: 2. After all, they produced some of the greatest records in rock history: the trio of Talking Heads records that Eno worked on, culminating in Remain in Light, and followed by the duo's My Life in the Bush of Ghosts, where all manner of Afro-funky beats and freaky sampladelic rhythms were wedded to. The Equatorial Stars, released in 2004, was Eno's first work with Robert Fripp since Evening Star, the 1975 follow-up to No Pussyfooting. Tienes Que Saberlo (En Vivo) | Javi Eloy. Stream and download in Hi-Res on Qobuz. 1988-07-22 - Pier 84 - New York, NY SBD > ? > CD-R received in trade > EAC > FLAC Track 36. Uploaded 11-04 2018, Size 221. 0 Sample Rate: 16 Bit/44. Gasoline And Dirty Sheets (3:19) 03. Gfi Languard 2012 Serial Keygen License Key slowly Gallop, mobile avances Histo. 2012 - Caetano Veloso & David Byrne - Live at Carnegie Hall: Download. Tienes Que Saberlo (En Vivo) | Javi Eloy. Danado De Bom 5. Manufactued & Marketed by Rhino Entertainment Co. Tickets are on sale now for David Byrne's American Utopia. Me Dá, Me Dê, Me Diz 9. Out Of The Darkness. Qualquer Bobagem 6. Organ Tapes) 10. I'm Not The Person 6. cue, log Bitrate: lossless Sample Rate: 16 Bit/44. Miss America (Clean Radio Edit) 2. Download torrent David Byrne «American Utopia» ( 2018) (Post-Punk) in HD quality FLAC | MP3 320 kbps. You Get Yo. Du Nord Au Sud 4. Sem Samba Não Dá flac: 24bit/192kHz: 03:32: Add Track: 12 Caetano Veloso and David Byrne. Lá Vem A Onda 2. Treat Myself by Meghan Trainor (2020, CD Flac) - 2 years ago. From original France Inter Live broadcast (FM bandwidth). It's Because You Spoke 9. The Brian Eno discography at hyperreal. This Must Be The Place (Naïve Melody) 9. Tienes Que Saberlo (En Vivo) | Javi Eloy. Brian Eno is an English electronic musician, music theorist and record producer. The Smashing Pumpkins - Discography 1991-2018 [FLAC] Though they emerged alongside grunge acts like Nirvana and Pearl Jam, the Smashing Pumpkins were the group least influenced by traditional underground rock. Quality: FLAC 24 bit / 96 kHz (Tracks) + FLAC 16 bit / 44. Live from Austin, TX: David Byrne by David Byrne, released 02 October 2007 1. The People Tree (feat. I Dance Like This (3:33) 02. All music David Byrne. 2006 Warner Records Inc. Start my trial period and start listening to this album. Au Banquet Aux Chausseurs 6. 1kHz - ? It seemed to. Know Myself 4. O Fole Roncou 2. 1 kHz (Tracks) Artist: David Byrne Title: American Utopia on Broadway (Original Cast Recording) Released: 2019 Style: Soundtrack RAR Size: 2. 2008 - David Byrne & Brian Eno - Everything That Happens Will Happen Today: Download. Using Words 2. Falling At Two Speeds 14. I Should Watch TV 8. The show had received a special award at the Tony Awards ceremony earlier in the evening. David Byrne's Africa by Zack Be, released 19 February 2018 DBA: Essien of Africa read in book That David put Africa into a hook But What does he see of it, just in the sound? Beneath dancing feet the story's unwound Where is America? Can it be found? Just in the melting pot Not in this town Stuck under walls that Can't be pushed down "If you're not on my team Your opinions don't. Format : Flac (tracks) Quality : Lossless. 1 kHz Size: 7 GB. Preview Everybody's Coming to My House. Vincent, an American musician, consists of seven studio albums, two remix albums, four extended plays (EP), 22 singles and 15 music videos. 16-bit FLAC. Gasoline And Dirty Sheets (3:19) 03. Buzz Yr Girlfriend: Vol 3 - The Metal David Byrne by Geronimo!, released 29 March 2013 1. The Smashing Pumpkins - Discography 1991-2018 [FLAC] Though they emerged alongside grunge acts like Nirvana and Pearl Jam, the Smashing Pumpkins were the group least influenced by traditional underground rock. Everybody's Coming To My House 9. I Thought I Was 7. Leimer Artificial Dance by Savant, released 04 September 2015 1. I'm Not The Person 6. Download discography David Byrne on site losslessalbums. Baji Larabat 2. Main artist: Talking Heads. Group David Byrne from region United States plays in genre Post-Punk and is recorded on label , at the time 13-05-18 in status Active. Know Myself 4. Organ Tapes) 10. 1kHz - ? It seemed to. Download discography David Byrne on site losslessalbums. Marching Through The Wilderness 7. 2010 - Ride, Rise, Roar: Download. Everybody's Coming To My House 9. It's Not What You Said It's Because You Spoke by DJ Pitch, released 02 July 2021 1. View More Discography Collapse. Baji Larabat 2. David Bowie's 1. 0 Sample Rate: 16 Bit/44. It is not 100% complete yet. 파일크기 : 224M. The Brian Eno discography at hyperreal. Format : Flac (tracks) Quality : Lossless. Leimer Artificial Dance by Savant, released 04 September 2015 1. flac" WAVE TRACK 01 AUDIO TITLE "A Long Time Ago" PERFORMER "David Byrne" INDEX 01 00:00:00 TRACK 02 AUDIO TITLE "Angels" PERFORMER "David Byrne" INDEX 01 03:23:63 TRACK 03 AUDIO TITLE "Crash" PERFORMER "David Byrne" INDEX 01 08:05:08 TRACK 04 AUDIO TITLE "A Self-Made Man" PERFORMER "David Byrne. Headed by principal songwriter and frontman Billy Corgan, they fashioned an amalgam of progressive rock, heavy metal, goth, psychedelia. Buy whole album with 10% discount - ONLY 1. Format : Flac (tracks) Quality : Lossless. Tarde Nordestina 13. Indifference 3. Asa Branca 10. Vou Com Você 9. Who David Byrne & St. Dancing With Jean-Maurice Cuisine Non-Stop is the first compilation of its. Treat Myself by Meghan Trainor (2020, CD Flac) - 2 years ago. The People Tree (feat. É De Dar Água Na Boca 8. O Fole Roncou 2. I Should Watch TV 8. Once In A Lifetime 5. Miss America by David Byrne, released 23 December 1997 1. FILE "David Byrne - David Byrne (9362-45558-2). 1988-07-22 - Pier 84 - New York, NY SBD > ? > CD-R received in trade > EAC > FLAC Track 36. 1988 - The Last Emperor (with David Byrne) [320kbps] 1990 - The Handmaid's Tale [320kbps] 1990 - The Sheltering Sky [320kbps] in digital format /mp3/flac*/ registration is required to acces this area discography. Here (Live). 976 fps / 16:9 / High Profile 4. Most are in FLAC, some are in MP3s/M4A. 0 Sample Rate: 16 Bit/44. Buzz Yr Girlfriend: Vol 3 - The Metal David Byrne by Geronimo!, released 29 March 2013 1. David Byrne (born May 14, 1952) is a Scottish-born musician and artist best known as a founding member and principal songwriter of the American new wave band Talking Heads, which was active between 1974 and 1991. Bitrate: 800-14000 kb/s Audio Format: FLAC Genre: Pop/Rock Music Artwork: Yes Source: CD+VINYL Total Filesize: 325 GB. René Bouteille 8. 2006 Warner Records Inc. 0 Sample Rate: 16 Bit/44. HOTLINE MIAMI 2 EP by Jasper Byrne, released 02 January 2015 1. Lá Vem A Onda 2. Good Bye Green Day 11. What A Day That Was 10. Once In A Lifetime 10. Genre: Rock. Discography [FLAC/M4A/MP3] Hi. The Brian Eno discography at hyperreal. 1985 Sire Records Company. Falling At Two Speeds 14. David Byrne And Brian Eno David Byrne And Brian Eno - Everything That Happens Will Happen On This Tour ‎ (4xFile, MP3, EP, 320 + 4xFile, FLAC, EP) Todomundo. Group David Byrne from region United States plays in genre Post-Punk and is recorded on label , at the time 13-05-18 in status Active. The Equatorial Stars, released in 2004, was Eno's first work with Robert Fripp since Evening Star, the 1975 follow-up to No Pussyfooting. Live from Austin, TX: David Byrne by David Byrne, released 02 October 2007 1. Follower Loop (feat. The show had received a special award at the Tony Awards ceremony earlier in the evening. Organ Tapes) 10. David Byrne Artist genre: Electronica , Rock , Alternative Rock , New Wave , World Music , Pop , Alternative Subscribe to updates Unsubscribe from updates. 다운로드 David Byrnes - American Utopia on Broadway Original Cast Recording 2019. Festa Do Interior 3. 0 Sample Rate: 16 Bit/44. Baji Larabat 2. David Byrne - 2001-06-13 - Paris, France (FM/FLAC) (FM broadcast FLAC) David Byrne. You Get Yo. 2008 - David Byrne & Brian Eno - Everything That Happens Will Happen Today: Download. Download discography David Byrne on site losslessalbums. David Byrne's Badside by Courting, released 15 May 2020 He spits at the people when they're not his own I thought we united, he says it's his home I'm not racist or tasteless They're invasive, they're hateful At The Rose, the boys don't question his behaviour Football shirts tucked into tracksuits Counts as formal wear, not drug dealing casual Hard times round here man, we gotta get through it. The seminal New York punk club the CBGB from 1975 became their local stamping ground playing alongside. I Dance Like This (3:33) 02. It's Not What You Said It's Because You Spoke by DJ Pitch, released 02 July 2021 1. I'm Not The Person 6. É De Dar Água Na Boca 8. Brulé La Mèche 12. Preview This Is That. 1988 - The Last Emperor (with David Byrne) [320kbps] 1990 - The Handmaid's Tale [320kbps] 1990 - The Sheltering Sky [320kbps] in digital format /mp3/flac*/ registration is required to acces this area discography. Sensible Music 10. Knowledge And Action 7. 74 MiB, ULed by akagin: 0: 1: Audio. Artist: David Byrne Title Of Album: David Byrne's American Utopia Year Of Release: 2020 Label: Dogwoof [DOG 436] Country: USA|UK Genre: Alternative / Independent Quality: MKV/BDRip 1080p Video: MPEG-4 AVC Video / 8 500 kbps / 1080p / 23. 1 Audio: DTS 5. Life During Wartime 13. 1 / 48 kHz / 1509 kbps / 16-bit Audio: LPCM 2. 2012 - Caetano Veloso & David Byrne - Live at Carnegie Hall: Download. David Byrne, a burgeoning mind He was the leader of the Talking Heads, he recorded punk funk and South-American music, republished gems of world music, spent countless hours cycling through large cities throughout the world, and dabbled in dozens of other activities. Group David Byrne from region United States plays in genre Post-Punk and is recorded on label , at the time 13-05-18 in status Active. Castello Branco Discography [FLAC] Uploaded 05-18 2018, Size 450. 1 kHz (Tracks) Artist: David Byrne Title: American Utopia on Broadway (Original Cast Recording) Released: 2019 Style: Soundtrack RAR Size: 2. Preview, buy and download high-quality music downloads of American Utopia on Broadway (Original Cast Recording) by David Byrne from 7digital Canada - We have over 30 million high quality tracks in our store. Direct download via magnet link. Sem Samba Não Dá flac: 24bit/192kHz: 03:32: Add Track: 12 Caetano Veloso and David Byrne. Album: American Utopia on Broadway (Original Cast Recording) Published: 2019. Brian Eno is an English electronic musician, music theorist and record producer. Gfi Languard 2012 Serial Keygen License Key slowly Gallop, mobile avances Histo. 1988-07-22 - Pier 84 - New York, NY SBD > ? > CD-R received in trade > EAC > FLAC Track 36. 23: 이전 다음 목록. Heart Of Stillness 8. This Must Be the Place (Naive Melody) 5. Track listing: 01. O Riso E A Faca 7. Brian Eno is an English electronic musician, music theorist and record producer. Listen free to Brian Eno - II: Vocal (Needles in the Camel's Eye, Baby's on Fire and more). Приобретайте пластинки, компакт-диски и многое другое от Nissy на маркетплейсе Discogs. Indifference 3. I Dance Like This (3:33) 02. cd scans) Length: 40m 18s. New Day Rising 6. View More Discography Collapse. The Radio 12. 1988 - The Last Emperor (with David Byrne) [320kbps] 1990 - The Handmaid's Tale [320kbps] 1990 - The Sheltering Sky [320kbps] in digital format /mp3/flac*/ registration is required to acces this area discography. I Know Sometimes a Man Is Wrong _ Don't Worry About the Government (Live). Discography Album (1977 - 1988) Dalam Flashdisk ORIGINAL Sandisk 16GB Format Mp3 dan Format FLAC TALKING HEADS Are : - David Byrne / Lead Vocal, Guitar - Chris Frantz / Drums, Backing Vocal - Tina Weymouth / Bass, Backing Vocal - Jerry Harrison / Keyboard, Guitar, Backing Vocal ALL ALBUMS : - (1977) 77 (*,**). I Thought I Was 7. Jimmy, Renda-Se 8. Missy Elliott Discography 7 Albums FLAC (tracks+. 20 Albums & 3 Singles / EPs. Life During Wartime 13. Miami artwork by aila byrne. Direct download via magnet link. Nelson Gonçalves. Miss America (I Love America Mix). Genius is Dead 5. Format : Flac (tracks) Quality : Lossless. Born in Dumbarton, Scotland on May 14,. After all, they produced some of the greatest records in rock history: the trio of Talking Heads records that Eno worked on, culminating in Remain in Light, and followed by the duo's My Life in the Bush of Ghosts, where all manner of Afro-funky beats and freaky sampladelic rhythms were wedded to. Discography by David Byrne (1981-2013, CD Flac) - Release Date:. The musical reunion between David Byrne and Brian Eno comes with a fair amount of baggage. The musical performers were accompanied by dancers who were choreographed to several songs. A State of Trance Classics 14 (The Full Unmixed Versions) (2020, CD Flac) - 2 years ago. Cuisine Non-Stop: Introduction to The French Nouvelle Generation by Luaka Bop, released 19 November 2002 1. Revolution 8. It is not 100% complete yet. master cassette > played on Nak. Listen free to Brian Eno - II: Vocal (Needles in the Camel's Eye, Baby's on Fire and more). 1 kHz / CD Flac, Discography, Lossless, KaRaMusic. I Know Sometimes a Man Is Wrong / Don't Worry About The Government 3. This Must Be The Place (Naïve Melody) 9. God's Child 3. greatest aor albums of all time. 0 / 48 kHz. Vincent, an American musician, consists of seven studio albums, two remix albums, four extended plays (EP), 22 singles and 15 music videos. Jamiroquai discography [1993-2017] FLAC 토렌트 torrent David Byrne's - American Utopia on Broadway (Original Cast Recording) (2019) 224M : 2019. Moonlight Africa 6. ABC Lullaby 1:21. His first solo vocal album in 15 years, Another Day on Earth, was issued in 2005, followed by 2008's Everything That Happens Will Happen Today -- another collaboration with David Byrne. mp3 [11M] 2. [ SHARE] The Caretaker - Discography [FLAC] [16-bit / 44. 24bit WEB;. O Riso E A Faca 7. Special Word (feat. 1985 Sire Records Company. Fault Index Artificial Dance chronicles K. 분류 제목 용량 등록일; 음악 [벅스] 2021년 10월 06일 실시간 TOP 100 [22시 기준]. It's Not What You Said It's Because You Spoke by DJ Pitch, released 02 July 2021 1. Moonlight Africa 6. [Request] Brian Eno & David Byrne - Everything That Happens Will Happen Today (Lossless) REQUESTED. Приобретайте пластинки, компакт-диски и многое другое от Nissy на маркетплейсе Discogs. Kill Streak 5. Jimmy, Renda-Se 8. cd scans) Length: 40m 18s. I Used To 2. David Byrne's Africa by Zack Be, released 19 February 2018 DBA: Essien of Africa read in book That David put Africa into a hook But What does he see of it, just in the sound? Beneath dancing feet the story's unwound Where is America? Can it be found? Just in the melting pot Not in this town Stuck under walls that Can't be pushed down "If you're not on my team Your opinions don't. 파일크기 : 224M. Listen to this album in high quality now on our apps. 2010 - Ride, Rise, Roar: Download. I Know Sometimes a Man Is Wrong / Don't Worry About The Government 3. David Byrne's Badside 7" w/ Football B-Side pressed for Flying Vinyl! All art by Sean Murphy-O'Neill / Lyrics by Sean Murphy-O'Neill / Music by Courting / Licenced to Nice Swan Records. David Byrne's Badside by Courting, released 15 May 2020 He spits at the people when they're not his own I thought we united, he says it's his home I'm not racist or tasteless They're invasive, they're hateful At The Rose, the boys don't question his behaviour Football shirts tucked into tracksuits Counts as formal wear, not drug dealing casual Hard times round here man, we gotta get through it. Knowledge And Action 7. The musical performers were accompanied by dancers who were choreographed to several songs. The song includes a "found sound"—an exorcism performed by an anonymous exorcist—over Afrobeat music similar to that Byrne and Eno had used in the Talking Heads album Remain in Light. Genre: Soundtrack. Sensible Music 10. Jamiroquai discography [1993-2017] FLAC 토렌트 torrent David Byrne's - American Utopia on Broadway (Original Cast Recording) (2019) 224M : 2019. The Neo-Realist 4. Organ Tapes) 10. 1 / 48 kHz / 1509 kbps / 16-bit Audio: LPCM 2. Dancing With Jean-Maurice Cuisine Non-Stop is the first compilation of its. 다운로드 David Byrnes - American Utopia on Broadway Original Cast Recording 2019. Direct download via magnet link. 1kHz - ? It seemed to. His first solo vocal album in 15 years, Another Day on Earth, was issued in 2005, followed by 2008's Everything That Happens Will Happen Today -- another collaboration with David Byrne. The People Tree (feat. The show had received a special award at the Tony Awards ceremony earlier in the evening. Follower Loop (feat. I Know Sometimes a Man Is Wrong / Don't Worry About The Government 3. Vincent name in 2006 and released her debut studio album, Marry Me, the following year. This is the original version of the Vinyl LP with the original Front Cover. 03 Gb + 681 Mb. The show had received a special award at the Tony Awards ceremony earlier in the evening. [Flac] Art Rock Electronic - Test&Copy + Cue (Lossless Crew) Artist: Brian EnoTitle Of Album: - Eno Box II: Vocals (BOX 3CD)Pubblicazione: Remastered 1993Genre: Art Rock - Progressive ElectronicSource: CDQuality: FLAC + Cue + M3U8 + Log Cover Front Back CdLine-up / Musicians- Brian Eno / synthesizer, bass, percussion, drums, vocals, bells, electronics, pulse organ, anamal soundsWith:- Robert. 24Bit Vinyl Rip Ripped by Badvok 13 March 2019 Linage Pro-jet Debut III SB > Tascam DR 05 96kHz/24 Bit WAV > Audacity FLAC > Traders Little Helper ffp. Organ Tapes) 10. Direct download via magnet link. Track listing: 01. Genius is Dead 5. O Sucesso Da Zefinha 7. 파일크기 : 224M. Miami artwork by aila byrne. Something Lefeh-O 3. Vou Com Você 9. 1 kHz (Tracks) Artist: David Byrne Title: American Utopia on Broadway (Original Cast Recording) Released: 2019 Style: Soundtrack RAR Size: 2. 16-bit FLAC. Download discography David Byrne on site losslessalbums. O Sucesso Da Zefinha 7. Discography [FLAC/M4A/MP3] Hi. Format : Flac (tracks) Quality : Lossless. Preview The '69 Los Angeles Sessions. It was released as a single the same year. Vincent name in 2006 and released her debut studio album, Marry Me, the following year. I just want to share my Red Velvet Discography collection. Follower Loop (feat. 0 kHz - Stereo. Download torrent David Byrne «American Utopia» ( 2018) (Post-Punk) in HD quality FLAC | MP3 320 kbps. I Dance Like This (3:33) 02. New Day Rising 6. Tickets are on sale now for David Byrne's American Utopia. David Byrne - American Utopia (2018) Country: USA Genre: New Wave, Post-Punk, Art-Pop Quality: FLAC (image+. Available in. Baji Larabat 2. David Byrne and the cast of American Utopia helped open The Tony Awards Present: Broadway's Back! on CBS last night with a performance of the Talking Heads' "Burning Down the House," a favorite from the Broadway production. "The Jezebel Spirit" is the fourth song from the 1981 album My Life in the Bush of Ghosts by David Byrne and Brian Eno. This Is That David Byrne 2018 From $1. Distinctions: The Qobuz Ideal Discography Hi-Res Audio. 1 kHz / CD Flac, Discography, Lossless, KaRaMusic. New Day Rising 6. Tum-Tum-Tum 4. A State of Trance Classics 14 (The Full Unmixed Versions) (2020, CD Flac) - 2 years ago. A Feira De Caruaru 14. What A Day That Was 10. 다운로드 David Byrnes - American Utopia on Broadway Original Cast Recording 2019. (2001) FM tuner > Marantz stereo cassette recorder CP230 >. Download discography David Byrne on site losslessalbums. Missy Elliott Discography 7 Albums FLAC (tracks+. His first solo vocal album in 15 years, Another Day on Earth, was issued in 2005, followed by 2008's Everything That Happens Will Happen Today -- another collaboration with David Byrne. O Fole Roncou 2. René Bouteille 8. Treat Myself by Meghan Trainor (2020, CD Flac) - 2 years ago. Twisted Sister 2006-05-26 Charlotte, NC FLAC/AUD (Lossless Audio from Blu-ray) mediaaddict. 125 into soundforge (WAV) > flac (SB’s aligned) Track 35. Miss America (I Love America Mix). Annie Clark began recording under the St. Discography [FLAC/M4A/MP3] Hi. From original France Inter Live broadcast (FM bandwidth). The show had received a special award at the Tony Awards ceremony earlier in the evening. 16-bit FLAC. Great Intoxication 6. His first solo vocal album in 15 years, Another Day on Earth, was issued in 2005, followed by 2008's Everything That Happens Will Happen Today -- another collaboration with David Byrne. I Know Sometimes a Man Is Wrong / Don't Worry About The Government 3. greatest aor albums of all time. The Radio 12. Download David Byrne – Discography (1981-2013) Year: 1981-2013 Genre: Alternative Audio Source: CD, WEB Audio Codec: FLAC Rip Type: tracks / image, cue, log Bitrate: Lossless Audio Channels: 2. After all, they produced some of the greatest records in rock history: the trio of Talking Heads records that Eno worked on, culminating in Remain in Light, and followed by the duo's My Life in the Bush of Ghosts, where all manner of Afro-funky beats and freaky sampladelic rhythms were wedded to. O Riso E A Faca 7. ABC Lullaby 1:21. The song includes a "found sound"—an exorcism performed by an anonymous exorcist—over Afrobeat music similar to that Byrne and Eno had used in the Talking Heads album Remain in Light. View More Discography Collapse. Skip to the main navigation Skip to the main content Skip to search Skip to footer Skip to the main content Back to the top. flac" WAVE TRACK 01 AUDIO TITLE "A Long Time Ago" PERFORMER "David Byrne" INDEX 01 00:00:00 TRACK 02 AUDIO TITLE "Angels" PERFORMER "David Byrne" INDEX 01 03:23:63 TRACK 03 AUDIO TITLE "Crash" PERFORMER "David Byrne" INDEX 01 08:05:08 TRACK 04 AUDIO TITLE "A Self-Made Man" PERFORMER "David Byrne. And She Was 4. 20 Albums & 3 Singles / EPs. Sensible Music 10. Tickets are on sale now for David Byrne's American Utopia. "The Jezebel Spirit" is the fourth song from the 1981 album My Life in the Bush of Ghosts by David Byrne and Brian Eno. David Byrne - 2001-06-13 - Paris, France (FM/FLAC) (FM broadcast FLAC) David Byrne. Manufactued & Marketed by Rhino Entertainment Co. Album: American Utopia on Broadway (Original Cast Recording) Published: 2019. Facility 13. David Byrne - American Utopia (2018) Country: USA Genre: New Wave, Post-Punk, Art-Pop Quality: FLAC (image+. Tienes Que Saberlo (En Vivo) | Javi Eloy. File Size: 2. "The Jezebel Spirit" is the fourth song from the 1981 album My Life in the Bush of Ghosts by David Byrne and Brian Eno. Tum-Tum-Tum 4. WBCN FM radio live broadcast > Altec reciever with wire antenna > Sony TCD-5M cassette deck (dolby off) > Maxell XLII 90 min. A State of Trance Classics 14 (The Full Unmixed Versions) (2020, CD Flac) - 2 years ago. 0 / 48 kHz. Buzz Yr Girlfriend: Vol 3 - The Metal David Byrne by Geronimo!, released 29 March 2013 1. 1 / 48 kHz / 1509 kbps / 16-bit Audio: LPCM 2. Direct download via magnet link. Decade Dance 2. Olympia, Paris. In addition to being a retrospective of the duo's collaborations, the tour promoted the album Everything That Happens Will Happen Today. No Fascination 3. Listen to this album in high quality now on our apps. What A Day That Was 10. Who David Byrne & St. Quality: FLAC 24 bit / 96 kHz (Tracks) + FLAC 16 bit / 44. Prophet Scream : BRIAN ENO The Catherine Wheel is David Byrne's musical score commissioned by Twyla Tharp. Search for and download any torrent from the pirate bay using search query brian eno. Here (Live). Born in Dumbarton, Scotland on May 14,. emaenuel and Rafael Lubner) The debut album from DJ Pitch For darkening nights For a world that is. flac" WAVE TRACK 01 AUDIO TITLE "A Long Time Ago" PERFORMER "David Byrne" INDEX 01 00:00:00 TRACK 02 AUDIO TITLE "Angels" PERFORMER "David Byrne" INDEX 01 03:23:63 TRACK 03 AUDIO TITLE "Crash" PERFORMER "David Byrne" INDEX 01 08:05:08 TRACK 04 AUDIO TITLE "A Self-Made Man" PERFORMER "David Byrne. I Dance Like This (3:33) 02. 16-bit FLAC. Facility 13. [Request] Brian Eno & David Byrne - Everything That Happens Will Happen Today (Lossless) REQUESTED. 125 into soundforge (WAV) > flac (SB’s aligned) Track 35. Born in Dumbarton, Scotland on May 14,. 24Bit Vinyl Rip Ripped by Badvok 13 March 2019 Linage Pro-jet Debut III SB > Tascam DR 05 96kHz/24 Bit WAV > Audacity FLAC > Traders Little Helper ffp. Everybody's Coming to My House David Byrne 2018 From $1. Annie Clark began recording under the St. As a Talking Heads fan I wish I watched this years ago. Ceremony by Phantogram (2020, CD Flac) - 2 years ago. Download torrent David Byrne «American Utopia» ( 2018) (Post-Punk) in HD quality FLAC | MP3 320 kbps. This is the original version of the Vinyl LP with the original Front Cover. Vincent, an American musician, consists of seven studio albums, two remix albums, four extended plays (EP), 22 singles and 15 music videos. Messines by The John Byrne Band, released 02 October 2020 Messines T'was on a grim June morning the thunderous mines did blow Praying to God with thoughts of home, together we faced the foe I cursed all those who sent us here, to a war we dared to share Remember us as brothers we fought, always faithful and everywhere. 2010 - David Byrne & Fatboy Slim - Here Lies Love: Download. 16-bit FLAC. American Utopia on Broadway: Original Cast Recording by David Byrne, released 21 October 2019 1. The song includes a "found sound"—an exorcism performed by an anonymous exorcist—over Afrobeat music similar to that Byrne and Eno had used in the Talking Heads album Remain in Light. Marching Through The Wilderness 7. Jamiroquai discography [1993-2017] FLAC 토렌트 torrent David Byrne's - American Utopia on Broadway (Original Cast Recording) (2019) 224M : 2019. David Byrne And Brian Eno David Byrne And Brian Eno - Everything That Happens Will Happen On This Tour ‎ (4xFile, MP3, EP, 320 + 4xFile, FLAC, EP) Todomundo. Annie Clark began recording under the St. David Bowie Greatest Hits Flac Torrent 2017; David Bowie Greatest Hits Flac of David Bowie's critically acclaimed 2013 album The Next Day. Buzz Yr Girlfriend: Vol 3 - The Metal David Byrne by Geronimo!, released 29 March 2013 1. Stream and download in Hi-Res on Qobuz. Brian Eno And David Byrne - My Life In The Bush Of Ghosts 1981. top 5000 albums of all time. 파일크기 : 224M. Barbie Hatch, RZA & John Frusciante) 06. 24bit WEB;. File Size: 2. Here (Live). David Byrne (born May 14, 1952) is a Scottish-born musician and artist best known as a founding member and principal songwriter of the American new wave band Talking Heads, which was active between 1974 and 1991. And She Was 4. Great Intoxication 6. A Feira De Caruaru 14. Leimer's complete collaborative. (2014) Marantz stereo cassette recorder CP230 > Realtek ALC888S. Stationary Dance 9. I Used To 2. 2019) 1: 739M. Trilha Sonora "Dois Filhos de Francisco" Zezé Di Camargo & Luciano. Buy whole album with 10% discount - ONLY 1. Discography Album (1977 - 1988) Dalam Flashdisk ORIGINAL Sandisk 16GB Format Mp3 dan Format FLAC TALKING HEADS Are : - David Byrne / Lead Vocal, Guitar - Chris Frantz / Drums, Backing Vocal - Tina Weymouth / Bass, Backing Vocal - Jerry Harrison / Keyboard, Guitar, Backing Vocal ALL ALBUMS : - (1977) 77 (*,**). David Byrne - American Utopia (2018) Country: USA Genre: New Wave, Post-Punk, Art-Pop Quality: FLAC (image+.